<?xml version="1.0" standalone="no"?>
<!DOCTYPE svg PUBLIC "-//W3C//DTD SVG 1.1//EN" "http://www.w3.org/Graphics/SVG/1.1/DTD/svg11.dtd" >
<svg xmlns="http://www.w3.org/2000/svg">
<metadata>Generated by IcoMoon</metadata>
<defs>
<font id="icomoon" horiz-adv-x="1024">
<font-face units-per-em="1024" ascent="960" descent="-64" />
<missing-glyph horiz-adv-x="1024" />
<glyph unicode="&#x20;" horiz-adv-x="512" d="" />
<glyph unicode="&#xe900;" glyph-name="copy" d="M149.291 915.499c-48-8.149-88.448-44.373-101.845-91.093l-3.925-13.739v-426.667l3.925-13.739c11.904-41.557 46.592-76.245 88.149-88.149 12.587-3.584 17.109-3.925 53.973-3.925h40.235l8.32 5.12c10.283 6.357 16.085 16.811 17.408 31.317 1.835 20.139-5.461 36.224-19.456 43.136-7.637 3.755-10.795 4.096-43.221 4.907-34.432 0.853-35.115 0.939-43.051 5.589-9.088 5.333-16 13.568-19.371 22.997-3.371 9.472-3.371 402.688 0 412.16 3.371 9.429 10.283 17.664 19.371 22.997l8.064 4.736 201.088 0.469c131.883 0.299 203.307-0.171 207.531-1.28 9.429-2.56 19.712-10.709 25.173-20.011 4.779-8.107 4.821-8.491 5.675-44.032 0.853-35.371 0.939-35.925 5.589-43.904 3.072-5.248 7.552-9.728 12.8-12.8 7.296-4.267 9.6-4.736 24.405-4.736 15.189 0 16.939 0.341 24.661 5.12 5.888 3.669 9.557 7.595 12.672 13.611 4.309 8.405 4.352 9.003 4.352 47.787-0.043 35.797-0.384 40.491-3.968 53.035-11.648 40.96-44.8 74.581-86.443 87.765l-13.696 4.309-209.92 0.256c-115.456 0.128-213.803-0.427-218.496-1.237zM447.957 616.832c-48-8.149-88.448-44.373-101.845-91.093l-3.925-13.739v-426.667l3.925-13.739c2.176-7.552 6.912-19.072 10.539-25.6 16.768-30.165 45.525-53.333 77.611-62.549l13.739-3.925h426.667l13.739 3.925c41.557 11.904 76.245 46.592 88.149 88.149l3.925 13.739v426.667l-3.925 13.739c-11.733 41.003-44.885 74.581-86.485 87.765l-13.696 4.309-209.92 0.256c-115.456 0.128-213.803-0.427-218.496-1.237zM867.413 530.901c9.429-3.371 17.664-10.283 22.997-19.371l4.736-8.064v-409.6l-4.736-8.064c-5.333-9.088-13.568-16-22.997-19.371-9.472-3.371-402.688-3.371-412.16 0-9.429 3.371-17.664 10.283-22.997 19.371l-4.736 8.064v409.6l4.736 8.064c5.333 9.088 13.568 16 22.997 19.371 9.472 3.371 402.688 3.371 412.16 0z" />
<glyph unicode="&#xe901;" d="M512-64c282.77 0 512 229.23 512 512s-229.23 512-512 512c-282.77 0-512-229.23-512-512s229.23-512 512-512z" />
<glyph unicode="&#xe902;" d="M783.891 192.219c0-79.704-128.595-6.808-266.464-6.808-137.868 0-277.315-69.885-277.315 9.82 0 45.449 44.444 108.657 108.205 154.565 48.038 34.598 107.030 59.378 166.289 59.378 60.938 0 120.634-26.825 168.253-63.649 60.099-46.432 101.032-108.822 101.032-153.306z" />
<glyph unicode="&#xe903;" d="M677.955 345.615c-71.165 10.737-199.877 23.827-324.855 4.265 46.651 34.55 103.936 59.293 161.482 59.293 59.16 0 117.132-26.787 163.373-63.558z" />
<glyph unicode="&#xe904;" d="M240.116 811.709c0 0-149.519-99.224-148.297-254.433s148.297 254.433 148.297 254.433z" />
<glyph unicode="&#xe905;" d="M330.546 518.194c9.658 0.552 55.114 4.028 83.987 20.759 4.636 2.771 9.875 4.338 15.25 4.563 9.18 0.268 19.743-3.628 12.98-25.422-10.957-35.651-74.575-75.764-114.060-73.541-37.971 2.139-83.016 17.683-112.76 72.338-2.851 5.258-4.255 11.199-4.064 17.198 0.346 11.031 4.294 24.854 24.677 9.444 27.54-20.809 79.791-24.754 90.272-25.339 1.238-0.068 2.479-0.068 3.717 0z" />
<glyph unicode="&#xe906;" d="M697.772 518.194c9.658 0.552 55.113 4.028 83.986 20.759 4.637 2.771 9.875 4.338 15.251 4.563 9.18 0.268 19.743-3.628 12.98-25.422-10.957-35.651-74.577-75.764-114.061-73.541-37.97 2.139-83.016 17.683-112.76 72.338-2.849 5.258-4.253 11.199-4.064 17.198 0.346 11.031 4.294 24.854 24.678 9.444 27.54-20.809 79.791-24.754 90.271-25.339 1.239-0.068 2.479-0.068 3.718 0z" />
<glyph unicode="&#xe907;" glyph-name="check-green" d="M820.293 582.902c17.878-43.892 28.671-91.527 30.901-141.553 10.458-234.774-171.659-433.872-406.434-444.331-234.774-10.458-433.872 171.658-444.331 406.433s171.657 433.873 406.433 444.332c95.647 4.26 185.375-23.441 258.836-73.646l-46.137-62.237c-59.632 39.996-132.089 61.985-209.253 58.546-192.092-8.556-341.1-171.459-332.543-363.551s171.458-341.099 363.55-332.541c192.092 8.556 341.1 171.457 332.543 363.549-1.499 33.66-7.737 65.995-18.041 96.392l64.477 48.606zM960.278 908.8c-216.608-153.253-384.557-341.922-504.13-565.799-76.623 98.067-127.549 150.243-248.962 226.689l-57.493-63.144c139.438-85.538 194.809-139.279 312.223-284.292 143.721 250.762 325.818 465.589 562.084 629.694l-63.722 56.853z" />
<glyph unicode="&#xe908;" glyph-name="play-circle" d="M481.28 915.499c-94.379-5.845-187.819-42.069-262.784-101.803-20.864-16.64-55.552-51.328-72.192-72.192-41.6-52.224-74.069-118.272-89.771-182.827-17.195-70.4-17.195-150.955 0-221.355 15.701-64.555 48.171-130.603 89.771-182.827 16.64-20.864 51.328-55.552 72.192-72.192 52.224-41.6 118.272-74.069 182.827-89.771 53.76-13.141 120.917-16.427 176.384-8.704 149.035 20.779 281.045 114.389 350.080 248.235 36.096 70.016 52.139 136.491 52.139 215.936s-16.043 145.92-52.139 215.936c-22.784 44.203-48.683 79.488-84.523 115.285-38.699 38.656-74.539 64.299-123.904 88.619-59.776 29.483-113.536 43.691-180.821 47.829-28.117 1.707-26.709 1.749-57.259-0.171zM558.165 829.568c86.784-10.837 163.456-48.341 225.28-110.123 73.301-73.301 112.555-167.979 112.555-271.445s-39.253-198.144-112.555-271.445c-73.301-73.301-167.979-112.555-271.445-112.555s-198.144 39.253-271.445 112.555c-62.336 62.336-101.205 142.805-110.72 229.12-2.347 21.291-2.347 63.36 0 84.651 13.099 118.997 82.901 226.773 187.093 288.811 43.563 25.941 100.779 45.312 150.699 50.987 20.992 2.347 69.419 2.091 90.539-0.555zM416.427 659.627c-11.221-2.005-15.659-4.096-21.632-10.197-10.24-10.496-9.941-4.48-9.941-202.283v-180.907l3.968-7.424c2.176-4.053 7.253-10.752 11.349-14.805 11.221-11.264 24.405-13.824 38.443-7.552 4.224 1.877 67.627 43.392 140.885 92.203 120.832 80.512 133.675 89.515 138.667 97.109 6.4 9.856 9.813 22.656 8.235 31.147-2.688 14.165-4.437 15.488-144.128 108.629-73.003 48.683-135.040 89.685-137.771 91.093-6.699 3.371-18.603 4.651-28.075 2.987zM539.093 493.227c36.651-24.405 66.688-44.757 66.688-45.227 0-0.853-132.053-89.088-134.912-90.155-0.896-0.341-1.536 37.419-1.536 90.155s0.64 90.496 1.536 90.155c0.853-0.299 31.531-20.523 68.224-44.928z" />
<glyph unicode="&#xe909;" glyph-name="alert-circle" d="M481.28 915.499c-94.379-5.845-187.819-42.069-262.784-101.803-20.864-16.64-55.552-51.328-72.192-72.192-41.6-52.224-74.069-118.272-89.771-182.827-17.195-70.4-17.195-150.955 0-221.355 15.701-64.555 48.171-130.603 89.771-182.827 16.64-20.864 51.328-55.552 72.192-72.192 52.224-41.6 118.272-74.069 182.827-89.771 53.76-13.141 120.917-16.427 176.384-8.704 149.035 20.779 281.045 114.389 350.080 248.235 36.096 70.016 52.139 136.491 52.139 215.936s-16.043 145.92-52.139 215.936c-22.784 44.203-48.683 79.488-84.523 115.285-38.699 38.656-74.539 64.299-123.904 88.619-59.776 29.483-113.536 43.691-180.821 47.829-28.117 1.707-26.709 1.749-57.259-0.171zM558.165 829.568c86.784-10.837 163.456-48.341 225.28-110.123 73.301-73.301 112.555-167.979 112.555-271.445s-39.253-198.144-112.555-271.445c-73.301-73.301-167.979-112.555-271.445-112.555s-198.144 39.253-271.445 112.555c-62.336 62.336-101.205 142.805-110.72 229.12-2.347 21.291-2.347 63.36 0 84.651 13.099 118.997 82.901 226.773 187.093 288.811 43.563 25.941 100.779 45.312 150.699 50.987 20.992 2.347 69.419 2.091 90.539-0.555zM501.76 659.627c-11.264-2.005-15.659-4.096-21.632-10.197-9.771-9.984-9.941-12.16-9.941-116.096 0-104.917 0.128-106.197 10.539-116.608 6.827-6.827 17.237-10.24 31.275-10.24 21.248 0 34.901 8.32 39.467 24.107 3.413 11.733 3.413 193.749 0 205.483-5.205 17.92-26.027 27.819-49.707 23.552zM501.76 318.293c-11.221-2.005-15.659-4.096-21.632-10.197-6.272-6.4-9.643-17.195-9.643-30.763 0-18.773 7.381-33.28 19.285-37.888 15.445-5.931 38.4-4.693 49.621 2.731 16.213 10.752 20.181 43.477 7.595 62.677-7.125 10.923-26.709 16.768-45.227 13.44z" />
<glyph unicode="&#xe90a;" glyph-name="minus-circle" d="M481.28 915.499c-94.379-5.845-187.819-42.069-262.784-101.803-20.864-16.64-55.552-51.328-72.192-72.192-41.6-52.224-74.069-118.272-89.771-182.827-17.195-70.4-17.195-150.955 0-221.355 15.701-64.555 48.171-130.603 89.771-182.827 16.64-20.864 51.328-55.552 72.192-72.192 52.224-41.6 118.272-74.069 182.827-89.771 53.76-13.141 120.917-16.427 176.384-8.704 149.035 20.779 281.045 114.389 350.080 248.235 36.096 70.016 52.139 136.491 52.139 215.936s-16.043 145.92-52.139 215.936c-22.784 44.203-48.683 79.488-84.523 115.285-38.699 38.656-74.539 64.299-123.904 88.619-59.776 29.483-113.536 43.691-180.821 47.829-28.117 1.707-26.709 1.749-57.259-0.171zM558.165 829.568c86.784-10.837 163.456-48.341 225.28-110.123 73.301-73.301 112.555-167.979 112.555-271.445s-39.253-198.144-112.555-271.445c-73.301-73.301-167.979-112.555-271.445-112.555s-198.144 39.253-271.445 112.555c-62.336 62.336-101.205 142.805-110.72 229.12-2.347 21.291-2.347 63.36 0 84.651 13.099 118.997 82.901 226.773 187.093 288.811 43.563 25.941 100.779 45.312 150.699 50.987 20.992 2.347 69.419 2.091 90.539-0.555zM377.685 610.219c-24.448-11.093-37.035-39.168-25.941-57.941 5.675-9.557 249.301-255.189 260.48-262.613 16.469-10.965 32.213-8.96 48.64 6.187 15.573 14.336 19.925 33.408 11.051 48.341-2.389 4.053-61.44 64.811-131.2 134.955-134.272 135.083-133.419 134.315-149.035 134.315-3.755 0-10.027-1.451-13.995-3.243z" />
<glyph unicode="&#xe90b;" glyph-name="skiiped" d="M481.28 915.499c-94.379-5.845-187.819-42.069-262.784-101.803-20.864-16.64-55.552-51.328-72.192-72.192-41.6-52.224-74.069-118.272-89.771-182.827-17.195-70.4-17.195-150.955 0-221.355 15.701-64.555 48.171-130.603 89.771-182.827 16.64-20.864 51.328-55.552 72.192-72.192 52.224-41.6 118.272-74.069 182.827-89.771 53.76-13.141 120.917-16.427 176.384-8.704 149.035 20.779 281.045 114.389 350.080 248.235 36.096 70.016 52.139 136.491 52.139 215.936s-16.043 145.92-52.139 215.936c-22.784 44.203-48.683 79.488-84.523 115.285-38.699 38.656-74.539 64.299-123.904 88.619-59.776 29.483-113.536 43.691-180.821 47.829-28.117 1.707-26.709 1.749-57.259-0.171zM558.165 829.568c86.784-10.837 163.456-48.341 225.28-110.123 73.301-73.301 112.555-167.979 112.555-271.445s-39.253-198.144-112.555-271.445c-73.301-73.301-167.979-112.555-271.445-112.555s-198.144 39.253-271.445 112.555c-62.336 62.336-101.205 142.805-110.72 229.12-2.347 21.291-2.347 63.36 0 84.651 13.099 118.997 82.901 226.773 187.093 288.811 43.563 25.941 100.779 45.312 150.699 50.987 20.992 2.347 69.419 2.091 90.539-0.555zM372.907 585.131c-17.323-9.131-26.411-28.544-19.584-41.813 1.152-2.219 22.485-24.576 47.488-49.664l45.397-45.653-45.397-45.653c-25.003-25.131-46.336-47.445-47.488-49.664-2.987-5.803-2.517-18.432 0.896-23.808 11.179-17.664 27.136-24.789 40.533-18.091 7.552 3.755 121.813 117.803 125.909 125.611 1.792 3.499 3.285 8.704 3.285 11.605s-1.493 8.107-3.285 11.605c-4.096 7.808-118.357 121.856-125.909 125.611-6.869 3.413-15.232 3.371-21.845-0.085zM522.923 585.515c-11.435-4.992-22.869-20.437-22.869-30.848 0-10.325 5.675-17.365 49.877-61.781l44.672-44.843-45.312-45.696c-48-48.341-50.731-51.968-48.64-64.853 2.005-12.416 16.427-26.837 28.843-28.843 13.184-2.133 15.787-0.085 76.16 59.776 31.317 31.104 59.179 59.947 61.867 64.128 6.699 10.368 6.699 20.523 0 30.891-7.68 11.819-116.011 118.741-123.477 121.856-7.68 3.2-14.080 3.285-21.12 0.213z" />
<glyph unicode="&#xe90c;" d="M374.526 272.183c14.257-30.606 8.935-62.361-13.979-84.515 4.325 8.829 2.889 24.292-7.353 26.967-16.084-29.354-39.398-32.571-79.087-28.975-7.041 33.956-8.88 58.139 18.070 82.256-1.133 7.617-10.613 9.572-21.576 6.006 18.929 22.238 46.567 28.527 76.249 22.996l27.676-24.735z" />
<glyph unicode="&#xe90d;" d="M372.205 276.621c9.341-21.131 5.055-43.427-11.276-59.337 3.169 6.252 2.457 17.034-4.61 18.715-11.72-20.817-27.98-23.497-55.492-21.716-4.264 23.606-5.095 40.477 14.077 57.833-0.646 5.303-7.198 6.495-14.882 3.799 13.564 15.896 32.886 20.803 53.409 17.485l18.774-16.779z" />
<glyph unicode="&#xe90e;" d="M750.721 717.478c-249.996 70.766-455.805-163.353-443.236-385.764l109.477-97.843c222.421 12.39 432.046 243.097 333.759 483.608z" />
<glyph unicode="&#xe90f;" d="M362.367 282.915l54.738-48.922c43.37 2.417 86.259 13.135 126.471 30.611l-0.41-0.178c-14.434 55.683-40.389 100.234-78 133.51-37.275 33.653-84.45 54.461-141.398 62.575l0.131 0.428c-12.868-41.915-18.721-85.733-16.271-129.103l54.739-48.922z" />
<glyph unicode="&#xe910;" d="M750.679 717.523c-61.729 17.475-120.759 16.359-174.479 1.423l-0.459-0.367c22.817-39.278 50.176-73.403 83.841-102.984 33.16-30.145 70.133-53.514 111.716-71.795l0.313 0.498c8.832 55.053 3.337 113.838-20.933 173.224z" />
<glyph unicode="&#xe911;" d="M615.614 305.21c-58.61-41.305-127.972-67.267-198.617-71.204 4.325-44.775-13.964-81.357-52.846-110.475 140.914-11.42 227.401 45.836 252.476 179.589z" />
<glyph unicode="&#xe912;" d="M356.107 537.142c-34.489-62.861-52.532-134.69-48.539-205.336-44.978-0.711-79.284-22.978-103.869-64.871-27.111 138.751 20.11 231.1 150.218 270.981z" />
<glyph unicode="&#xe913;" d="M307.713 375.971c-1.040-14.786-1.17-29.613-0.336-44.382l109.476-97.844c14.932 0.835 29.806 2.649 44.538 5.384l-153.678 136.842z" />
<glyph unicode="&#xe914;" d="M642.343 596.204c43.299-38.698 47.034-105.271 8.336-148.57s-105.268-47.030-148.567-8.332c-43.299 38.697-47.037 105.267-8.339 148.566s105.271 47.033 148.57 8.336z" />
<glyph unicode="&#xe915;" d="M523.308 462.989c30.211-27.001 76.658-24.395 103.656 5.813 27.001 30.211 24.395 76.658-5.816 103.66s-76.659 24.395-103.66-5.816c-26.999-30.208-24.393-76.655 5.819-103.656z" />
<glyph unicode="&#xe916;" glyph-name="close-circle" d="M481.28 915.499c-94.379-5.845-187.819-42.069-262.784-101.803-20.864-16.64-55.552-51.328-72.192-72.192-41.6-52.224-74.069-118.272-89.771-182.827-17.195-70.4-17.195-150.955 0-221.355 15.701-64.555 48.171-130.603 89.771-182.827 16.64-20.864 51.328-55.552 72.192-72.192 52.224-41.6 118.272-74.069 182.827-89.771 53.76-13.141 120.917-16.427 176.384-8.704 149.035 20.779 281.045 114.389 350.080 248.235 36.096 70.016 52.139 136.491 52.139 215.936s-16.043 145.92-52.139 215.936c-22.784 44.203-48.683 79.488-84.523 115.285-38.699 38.656-74.539 64.299-123.904 88.619-59.776 29.483-113.536 43.691-180.821 47.829-28.117 1.707-26.709 1.749-57.259-0.171zM558.165 829.568c86.784-10.837 163.456-48.341 225.28-110.123 73.301-73.301 112.555-167.979 112.555-271.445s-39.253-198.144-112.555-271.445c-73.301-73.301-167.979-112.555-271.445-112.555s-198.144 39.253-271.445 112.555c-62.336 62.336-101.205 142.805-110.72 229.12-2.347 21.291-2.347 63.36 0 84.651 13.099 118.997 82.901 226.773 187.093 288.811 43.563 25.941 100.779 45.312 150.699 50.987 20.992 2.347 69.419 2.091 90.539-0.555zM369.323 616.917c-9.045-4.48-21.931-17.451-26.283-26.411-4.437-9.173-4.352-20.011 0.299-29.739 2.645-5.504 18.987-23.211 55.808-60.288l52.053-52.48-52.053-52.48c-36.821-37.077-53.163-54.784-55.808-60.288-7.296-15.317-3.669-29.995 11.093-44.8 14.805-14.763 29.483-18.389 44.8-11.093 5.504 2.645 23.211 18.987 60.288 55.808l52.48 52.053 52.48-52.053c37.077-36.821 54.784-53.163 60.288-55.808 15.317-7.296 29.995-3.669 44.8 11.093 14.763 14.805 18.389 29.483 11.093 44.8-2.645 5.504-18.987 23.211-55.808 60.288l-52.053 52.48 52.053 52.48c36.821 37.077 53.163 54.784 55.808 60.288 7.296 15.317 3.669 29.995-11.093 44.8-14.805 14.763-29.483 18.389-44.8 11.093-5.504-2.645-23.211-18.987-60.288-55.808l-52.48-52.053-52.48 52.053c-37.077 36.821-54.784 53.163-60.288 55.808-9.771 4.651-20.821 4.736-29.909 0.256z" />
<glyph unicode="&#xe917;" glyph-name="heart" d="M285.867 873.515c-102.357-5.248-194.987-68.651-237.013-162.176-42.709-95.147-29.141-204.16 35.627-286.293 14.080-17.877 404.309-407.552 412.16-411.563 7.851-4.053 22.869-4.053 30.72 0 7.851 4.011 398.080 393.685 412.16 411.563 64.853 82.219 78.379 191.061 35.627 286.293-38.528 85.717-118.528 145.792-213.12 160-18.816 2.816-61.312 2.432-81.963-0.725-42.795-6.613-85.632-24.619-121.984-51.243-6.101-4.437-18.944-15.403-28.587-24.32l-17.493-16.213-17.493 16.213c-37.205 34.475-73.685 55.595-118.187 68.48-24.747 7.168-63.104 11.392-90.453 9.984zM333.781 786.688c28.587-4.949 59.563-18.347 82.133-35.413 6.4-4.821 25.813-22.699 43.179-39.723s34.261-32.341 37.547-34.091c7.893-4.181 22.827-4.181 30.72 0 3.285 1.749 20.181 17.067 37.547 34.091s36.779 34.901 43.179 39.723c22.4 16.981 52.608 30.037 82.261 35.584 22.315 4.181 59.008 2.645 80.768-3.371 42.368-11.733 76.501-34.005 102.912-67.157 55.125-69.163 55.083-169.557-0.128-237.995-5.461-6.827-89.173-91.52-185.941-188.203l-175.957-175.787-175.957 175.787c-96.768 96.683-180.48 181.376-185.941 188.203-55.125 68.352-55.168 168.917-0.128 237.995 29.739 37.333 73.685 63.275 120.533 71.168 14.336 2.432 47.232 2.005 63.275-0.811z" />
<glyph unicode="&#xe918;" glyph-name="arrow-left" d="M496.64 787.371c-5.675-2.731-47.061-42.923-157.909-153.173-82.645-82.219-153.003-152.021-156.373-155.051-6.955-6.357-13.397-21.291-13.397-31.147s6.443-24.789 13.397-31.147c3.371-3.029 73.728-72.832 156.373-155.051 113.621-113.109 152.107-150.4 158.037-153.173 15.36-7.253 30.037-3.584 44.8 11.136 14.72 14.763 18.389 29.44 11.136 44.8-2.773 5.888-32.555 36.736-119.808 124.245l-116.139 116.437 253.355 0.469c279.509 0.512 260.267-0.299 272.043 11.221 13.611 13.312 13.611 48.811 0 62.123-11.776 11.52 7.467 10.709-272.043 11.221l-253.355 0.469 116.139 116.437c87.253 87.509 117.035 118.357 119.808 124.245 7.253 15.36 3.584 30.037-11.136 44.8-14.763 14.72-29.696 18.432-44.928 11.136z" />
<glyph unicode="&#xe919;" glyph-name="menu" d="M117.76 744.917c-11.221-1.963-15.659-4.053-21.632-10.155-13.355-13.653-13.013-48.469 0.597-62.037 11.221-11.264-16.981-10.539 415.275-10.539s404.053-0.725 415.275 10.539c13.824 13.781 13.909 48.896 0.213 62.336-11.904 11.648 22.187 10.709-410.368 11.008-215.424 0.128-395.136-0.384-399.36-1.152zM117.76 488.917c-11.221-1.963-15.659-4.053-21.632-10.155-13.355-13.653-13.013-48.469 0.597-62.037 11.221-11.264-16.981-10.539 415.275-10.539s404.053-0.725 415.275 10.539c13.824 13.781 13.909 48.896 0.213 62.336-11.904 11.648 22.187 10.709-410.368 11.008-215.424 0.128-395.136-0.384-399.36-1.152zM117.76 232.917c-11.221-1.963-15.659-4.053-21.632-10.155-13.355-13.653-13.013-48.469 0.597-62.037 11.221-11.264-16.981-10.539 415.275-10.539s404.053-0.725 415.275 10.539c13.824 13.781 13.909 48.896 0.213 62.336-11.904 11.648 22.187 10.709-410.368 11.008-215.424 0.128-395.136-0.384-399.36-1.152z" />
<glyph unicode="&#xe91a;" glyph-name="globe" d="M503.211 918.229c-0.597-0.597-10.965-1.835-23.040-2.731-65.365-4.949-117.589-19.115-175.531-47.659-49.408-24.32-85.291-50.005-123.861-88.619-38.613-38.571-64.299-74.453-88.619-123.861-43.264-87.765-57.771-180.779-43.435-278.656 6.571-45.227 21.163-90.88 43.435-136.064 24.32-49.408 50.005-85.291 88.619-123.861 38.571-38.613 74.453-64.299 123.861-88.619 56.235-27.733 114.389-43.819 170.069-47.019 8.789-0.512 20.437-1.749 25.899-2.816 7.253-1.365 13.653-1.365 23.893 0 7.68 1.067 23.552 2.773 35.285 3.797 153.771 13.653 295.936 110.208 368 249.941 36.053 69.931 52.267 136.917 52.267 215.936s-16.213 146.005-52.267 215.936c-22.784 44.203-48.683 79.488-84.523 115.285-38.699 38.656-74.539 64.299-123.904 88.619-57.643 28.416-108.203 42.197-176 47.957-12.075 1.024-25.813 2.219-30.507 2.688s-9.045 0.341-9.643-0.256zM414.72 819.371c0-0.384-4.651-8.064-10.325-17.067-53.845-85.675-90.368-191.189-100.907-291.328l-2.133-20.309h-171.861l1.152 8.107c11.776 84.096 49.877 160.64 109.909 220.672 43.776 43.733 93.483 74.496 151.979 93.952 19.797 6.571 22.187 7.211 22.187 5.973zM630.997 813.44c58.453-19.243 108.544-50.133 152.448-93.995 43.733-43.776 74.752-93.995 93.867-152.021 6.187-18.816 13.739-51.499 15.915-68.651l0.981-8.107h-171.819l-1.152 13.227c-8.832 100.139-46.549 210.773-101.888 298.752-5.547 8.832-10.069 16.341-10.069 16.725 0 1.152 1.024 0.853 21.717-5.931zM525.099 791.467c59.392-82.603 97.195-178.432 110.635-280.405 1.408-10.624 2.56-19.584 2.56-19.84 0-0.299-56.832-0.555-126.293-0.555s-126.293 0.256-126.293 0.555c0 0.256 1.152 9.216 2.56 19.84 13.312 101.035 50.645 196.352 108.843 277.845 7.509 10.539 14.208 19.2 14.848 19.2s6.528-7.509 13.141-16.64zM303.488 385.024c10.581-100.736 46.848-205.312 101.205-291.755 5.547-8.875 9.813-16.384 9.429-16.768-0.341-0.384-9.771 2.347-20.949 6.016-116.736 38.4-208.299 129.792-246.485 246.059-6.016 18.389-13.44 50.133-16.043 68.651l-1.152 8.107h171.861l2.133-20.309zM638.293 404.779c0-0.256-1.152-9.216-2.56-19.84-13.44-102.059-51.371-198.059-110.72-280.405-6.613-9.173-12.501-16.64-13.099-16.64s-7.296 8.619-14.805 19.2c-58.197 81.493-95.531 176.811-108.843 277.845-1.408 10.624-2.56 19.584-2.56 19.84 0 0.299 56.832 0.555 126.293 0.555s126.293-0.256 126.293-0.555zM893.227 397.227c-2.176-17.152-9.728-49.835-15.915-68.651-19.115-58.027-50.133-108.245-93.867-152.021-43.947-43.947-93.952-74.752-152.619-94.037-11.179-3.669-20.608-6.4-20.949-6.016-0.384 0.384 3.883 7.893 9.429 16.768 55.381 88.107 93.099 198.656 101.931 298.837l1.152 13.227h171.819l-0.981-8.107z" />
<glyph unicode="&#xe91b;" glyph-name="linkedin" d="M155.307 915.669c-28.757-3.072-52.395-14.763-74.325-36.651-25.941-25.984-37.035-52.864-37.035-89.685s11.093-63.701 37.035-89.685c25.984-25.941 52.864-37.035 89.685-37.035s63.701 11.093 89.685 37.035c25.941 25.984 37.035 52.864 37.035 89.685 0 23.637-3.883 39.893-14.507 60.501-9.941 19.2-32.512 41.771-51.712 51.712-23.296 11.989-49.792 16.939-75.861 14.123zM187.733 828.459c10.325-4.693 16.683-10.965 21.547-21.205 13.269-28.075-7.467-60.544-38.613-60.544-10.965 0-24.021 5.419-31.061 12.971-15.189 16.256-15.189 43.051 0 59.307 11.477 12.245 32.725 16.427 48.128 9.472zM661.333 659.541c-116.992-8.064-218.112-84.309-258.688-195.029-6.443-17.579-10.795-34.645-14.72-57.472-2.816-16.427-3.072-31.829-3.072-185.173 0-184.277-0.341-178.304 10.539-189.141 10.411-10.411 11.691-10.539 116.608-10.539 104.661 0 106.453 0.171 116.395 10.325 11.221 11.477 10.624 2.389 11.563 180.821 0.896 162.048 0.896 162.133 4.565 168.96 16.555 30.635 59.733 30.635 76.288 0 3.669-6.827 3.669-6.912 4.565-168.96 0.939-178.432 0.341-169.344 11.563-180.821 9.941-10.155 11.733-10.325 116.395-10.325 104.917 0 106.197 0.128 116.608 10.539 10.88 10.837 10.539 4.864 10.539 189.141 0 180.779 0.085 178.645-9.429 215.893-12.672 49.664-40.619 98.347-77.781 135.509-61.227 61.227-144.768 92.288-231.936 86.272zM75.093 616.96c-11.264-2.048-15.659-4.096-21.632-10.197-10.411-10.667-9.941 3.243-9.941-286.763 0-291.883-0.555-276.181 10.539-287.275 10.411-10.411 11.691-10.539 116.608-10.539s106.197 0.128 116.608 10.539c11.093 11.093 10.539-4.608 10.539 287.275 0 291.371 0.555 276.437-10.325 287.061-11.051 10.795-9.344 10.624-111.701 10.965-51.157 0.171-96.469-0.299-100.693-1.067zM717.867 573.355c44.288-7.723 84.651-28.8 116.267-60.8 24.021-24.32 40.149-50.304 50.645-81.792 11.264-33.621 11.221-33.067 11.221-186.069v-138.027h-85.12l-0.64 138.667c-0.597 138.283-0.597 138.709-4.48 151.424-6.912 22.827-16.299 38.443-33.408 55.595-25.984 25.941-52.864 37.035-89.685 37.035s-63.701-11.093-89.685-37.035c-17.109-17.152-26.496-32.768-33.408-55.595-3.883-12.715-3.883-13.141-4.48-151.424l-0.64-138.667h-85.12v138.027c0 149.589 0.085 151.253 9.557 181.419 16.896 53.888 55.595 99.968 106.283 126.635 14.677 7.68 43.179 17.323 60.885 20.48 18.389 3.328 53.077 3.413 71.808 0.128zM213.333 320v-213.333h-85.333v426.667h85.333v-213.333z" />
<glyph unicode="&#xe91c;" glyph-name="location" d="M482.133 958.251c-56.491-3.84-105.387-17.237-158.72-43.477-44.757-22.059-78.805-46.251-112.683-80.171-33.877-33.835-58.027-67.797-80.213-112.683-30.592-62.037-43.733-118.144-43.733-186.88 0-50.859 6.315-89.984 22.357-138.24 24.619-73.941 64.896-144.427 125.397-219.307 57.6-71.339 139.221-148.736 223.531-212.053 51.797-38.869 56.064-38.869 107.861 0 84.139 63.189 166.059 140.885 223.531 212.053 83.669 103.595 131.627 204.075 144.981 303.787 3.328 24.661 3.755 76.501 0.853 100.693-9.515 79.659-41.771 156.629-91.904 219.264-16.469 20.565-42.752 46.848-63.488 63.531-48.939 39.296-113.28 70.528-173.184 84.011-37.547 8.491-85.547 12.117-124.587 9.472zM568.832 870.485c66.133-12.331 122.453-39.552 170.155-82.133 59.392-53.077 96.597-121.216 111.232-203.819 1.451-8.149 2.261-26.752 2.219-51.2 0-33.109-0.555-41.045-3.883-57.643-16.171-80.341-53.845-155.435-119.637-238.464-41.643-52.565-102.912-114.133-164.011-164.864-27.392-22.741-50.816-40.789-52.907-40.789-3.371 0-56.107 42.453-88.747 71.467-24.235 21.504-69.333 66.432-92.075 91.691-73.557 81.707-123.648 164.651-146.048 241.664-11.648 40.064-13.611 54.187-13.525 97.792 0 30.123 0.725 42.923 3.029 55.083 14.037 74.197 45.355 134.613 96.085 185.344 54.528 54.528 121.771 87.509 200.32 98.304 17.536 2.389 80.341 0.853 97.792-2.432zM494.037 702.208c-72.875-7.168-133.248-61.739-148.523-134.357-3.669-17.451-3.669-51.584 0-69.035 13.952-66.389 65.579-118.016 131.968-131.968 17.451-3.669 51.584-3.669 69.035 0 57.387 12.075 104.192 52.352 124.971 107.52 6.912 18.389 9.771 35.669 9.771 58.965 0 38.357-9.173 67.755-30.635 98.133-35.456 50.219-94.421 76.843-156.587 70.741zM532.309 616.875c28.331-6.571 56.661-34.901 63.232-63.232 2.219-9.643 2.219-30.976 0-40.619-6.571-28.331-34.901-56.661-63.232-63.232-9.643-2.219-30.976-2.219-40.619 0-28.331 6.571-56.661 34.901-63.232 63.232-2.219 9.643-2.219 30.976 0 40.619 6.443 27.904 34.901 56.661 62.549 63.147 8.96 2.133 32.256 2.133 41.301 0.085z" />
<glyph unicode="&#xe91d;" glyph-name="phone" d="M159.275 915.541c-28.416-3.499-51.627-15.061-73.216-36.565-13.141-13.013-16.725-17.877-23.467-31.616-11.093-22.528-13.739-34.048-13.696-58.88 0.085-22.059 4.224-53.077 12.757-95.573 22.955-113.877 66.859-217.984 134.571-319.147 75.392-112.597 164.736-197.248 284.203-269.184 104.661-63.019 212.267-100.821 336.683-118.4 45.952-6.443 63.275-4.48 94.251 10.709 13.696 6.699 18.603 10.325 31.659 23.467 12.971 13.013 16.725 18.091 23.424 31.701 14.037 28.544 14.037 28.459 14.037 123.733 0 76.245-0.299 84.693-3.2 95.573-9.6 35.968-35.755 68.053-68.139 83.456-14.976 7.125-19.072 8.235-51.541 13.824-32.427 5.547-51.328 10.325-88.235 22.315-35.456 11.563-53.504 13.525-78.208 8.491-29.525-5.973-47.147-16.341-77.525-45.525l-19.755-18.987-7.211 4.736c-70.699 46.208-140.331 116.181-184.704 185.557l-2.987 4.693 18.987 19.755c37.163 38.656 47.019 60.331 46.891 103.125l-0.085 23.040-9.813 29.867c-12.117 37.077-16.725 55.253-22.315 87.893-5.589 32.469-6.699 36.565-13.824 51.541-15.189 31.915-46.208 57.557-81.664 67.627-11.093 3.157-17.92 3.456-88.832 3.84-42.24 0.256-82.304-0.256-89.045-1.067zM317.739 830.251c8.789-2.475 22.741-15.531 25.984-24.32 1.451-3.968 3.84-14.507 5.291-23.424 5.973-36.779 16.043-77.099 26.197-104.96 7.083-19.456 7.893-26.197 4.48-37.931-2.688-9.259-4.821-11.819-35.627-43.136-18.048-18.304-34.517-36.139-36.651-39.637s-4.309-10.539-4.821-15.616c-1.152-10.965 2.389-19.712 18.688-46.293 29.909-48.811 61.568-88.619 105.301-132.352 43.392-43.392 82.859-74.837 131.499-104.832 33.067-20.352 44.203-23.339 59.605-15.915 5.163 2.475 19.371 15.147 41.941 37.333 31.275 30.805 34.944 33.835 43.392 36.395 5.12 1.493 11.093 2.731 13.355 2.731 2.219 0 15.36-3.797 29.227-8.405 29.995-10.027 66.517-19.157 95.787-23.979 11.733-1.92 24.576-4.693 28.544-6.187 8.832-3.243 21.888-17.195 24.32-25.984 1.067-3.797 1.707-35.029 1.707-79.659 0-73.259 0-73.387-3.968-81.92-4.139-8.917-13.653-18.56-21.333-21.675-10.283-4.096-17.963-4.309-40.96-1.109-127.488 17.792-235.477 59.349-346.709 133.419-81.024 53.973-160.213 133.12-214.528 214.485-72.021 107.861-116.309 222.549-132.864 343.893-3.328 24.192-3.371 36.395-0.128 44.117 3.712 8.832 13.056 18.347 22.4 22.699 8.533 3.968 8.661 3.968 81.067 3.968 44.075 0 75.008-0.64 78.805-1.707z" />
<glyph unicode="&#xe91e;" glyph-name="youtube" d="M406.187 830.251c-149.717-3.285-241.835-10.453-277.077-21.589-48.427-15.232-87.125-52.992-103.808-101.248-6.613-19.157-17.792-100.821-22.059-161.28-2.603-37.163-2.603-142.080 0.043-177.493 4.608-62.549 14.464-135.808 20.949-156.16 12.075-37.76 43.179-73.856 79.019-91.733 35.157-17.536 79.659-23.552 220.16-29.781 63.531-2.816 313.643-2.816 377.173 0 138.624 6.144 186.24 12.544 219.349 29.355 34.048 17.323 63.701 50.816 76.843 86.827 8.576 23.467 18.603 92.672 23.936 164.907 2.603 35.285 2.645 142.336 0.043 177.493-4.437 60.245-15.616 140.928-22.059 159.573-16.256 47.019-54.869 85.419-100.992 100.395-29.355 9.557-94.165 15.36-212.48 18.987-81.749 2.517-208.384 3.328-279.040 1.749zM670.72 744.96c132.736-4.053 189.739-9.387 210.091-19.712 12.843-6.485 27.349-20.992 33.707-33.664 5.717-11.307 10.795-38.101 16.512-86.571 10.24-87.168 10.24-200.96 0-288.427-5.504-46.933-10.709-74.88-16.128-86.443-9.216-19.712-27.989-34.773-50.731-40.704-48.043-12.501-264.789-20.523-446.464-16.512-180.949 4.011-248.363 9.557-275.755 22.784-11.051 5.333-26.283 20.352-32.555 32.043-5.888 11.051-10.581 35.499-16.427 85.419-10.325 88.064-10.325 202.325 0 290.133 8.619 73.131 13.397 89.131 31.787 106.709 12.288 11.691 26.837 18.688 45.952 21.973 31.061 5.376 100.011 10.197 182.571 12.843 62.635 1.963 254.336 2.048 317.44 0.128zM398.251 638.293c-5.376-2.688-10.453-6.997-13.611-11.52-10.709-15.317-9.984-4.011-10.496-166.741-0.427-135.424-0.213-150.144 2.389-158.336 3.328-10.624 12.373-19.797 22.272-22.528 8.533-2.389 22.485-2.347 29.739 0.085 10.197 3.413 255.872 143.744 263.893 150.741 9.131 7.936 12.416 14.848 12.416 26.069 0 9.771-7.381 26.411-14.72 33.152-6.016 5.547-252.587 145.92-263.893 150.229-11.008 4.224-17.792 3.925-27.989-1.152zM517.419 491.947c48.768-27.733 57.344-33.152 54.997-34.901-5.803-4.267-111.445-63.659-113.195-63.659-1.28 0-1.835 19.883-1.835 65.707 0 36.139 0.512 65.707 1.109 65.707 0.64 0 27.136-14.763 58.923-32.853z" />
<glyph unicode="&#xe91f;" glyph-name="star" d="M493.995 914.901c-4.779-2.389-10.411-6.784-12.587-9.728-3.072-4.139-126.208-251.093-128.469-257.579-0.299-0.853-61.568-10.411-136.192-21.291-74.624-10.837-139.776-20.907-144.768-22.315-15.957-4.48-31.019-23.765-31.019-39.637 0-15.403 1.237-16.811 109.056-121.941 55.936-54.571 101.931-100.395 102.187-101.845 0.299-1.451-9.899-63.232-22.613-137.301-12.672-74.027-23.083-137.429-23.083-140.885 0-14.891 12.587-35.243 25.045-40.405 7.125-2.987 18.816-2.987 27.221 0 3.627 1.323 62.080 31.573 129.877 67.285l123.307 64.896 121.6-64.043c66.901-35.2 124.629-65.067 128.256-66.389 19.285-6.955 46.507 2.859 53.376 19.285 1.28 3.029 2.304 10.027 2.304 15.573s-10.411 70.656-23.083 144.683c-12.715 74.069-22.912 135.851-22.613 137.344 0.256 1.451 45.909 46.933 101.461 101.077 112.171 109.397 107.221 103.509 107.221 126.635 0 16.512-4.992 25.387-17.92 31.957-8.576 4.352-21.461 6.528-150.101 25.259-77.355 11.307-140.757 20.693-140.885 20.907-0.085 0.213-28.117 57.045-62.293 126.251-39.339 79.787-64 127.872-67.328 131.285-6.613 6.784-20.48 13.227-31.104 14.379-6.656 0.768-9.899 0.085-16.853-3.456zM559.872 682.368c25.771-52.267 48.939-97.963 51.499-101.504 9.472-13.056 5.376-12.16 138.709-31.317 49.749-7.168 91.861-13.568 93.611-14.251 2.56-0.981-10.837-14.848-73.984-76.245-45.525-44.288-78.933-78.123-81.579-82.56-3.669-6.272-4.395-9.557-4.181-18.816 0.128-6.187 7.979-56.149 17.451-111.061s16.981-101.077 16.725-102.571c-0.341-2.091-18.091 6.528-74.709 36.352-124.672 65.664-119.381 63.147-131.413 63.147-12.075 0-7.339 2.261-131.413-63.104-57.173-30.165-74.368-38.528-74.752-36.395-0.256 1.536 7.296 47.701 16.768 102.613 9.472 54.869 17.323 104.832 17.451 111.019 0.213 9.259-0.512 12.544-4.181 18.816-2.645 4.437-36.053 38.272-81.579 82.56-63.147 61.397-76.544 75.264-73.984 76.245 1.749 0.683 43.861 7.083 93.611 14.251 133.333 19.157 129.237 18.261 138.709 31.317 2.56 3.541 25.728 49.237 51.499 101.504s47.317 95.019 47.872 95.019c0.555 0 22.101-42.752 47.872-95.019z" />
<glyph unicode="&#xe920;" glyph-name="facebook" d="M618.667 915.584c-91.776-7.509-173.269-64.811-210.731-148.139-19.285-42.965-23.808-71.381-23.893-149.888l-0.043-41.259-49.067-0.683c-53.973-0.811-57.728-1.408-67.755-11.221-10.155-9.941-10.325-11.733-10.325-116.395s0.171-106.453 10.325-116.395c10.027-9.813 13.781-10.411 67.712-11.221l48.981-0.683 0.512-155.605c0.555-171.392 0-162.731 11.221-174.251 9.941-10.155 11.733-10.325 116.395-10.325s106.453 0.171 116.395 10.325c11.221 11.52 10.667 2.859 11.221 174.251l0.512 155.605 48.981 0.597c43.691 0.555 49.664 0.939 54.997 3.755 7.595 4.011 14.976 10.88 18.048 16.725 4.096 7.808 48.512 188.715 48.469 197.333-0.043 9.173-4.437 19.968-10.411 25.429-2.261 2.048-7.936 5.504-12.587 7.68-8.405 3.84-9.685 3.925-78.080 4.437l-69.547 0.555v84.864l70.4 0.64c77.355 0.683 78.464 0.811 89.088 11.221 10.155 9.941 10.325 11.733 10.325 116.395s-0.171 106.453-10.325 116.395c-10.752 10.496-11.392 10.581-91.221 10.923-39.893 0.171-80.213-0.299-89.6-1.067zM725.333 789.333v-42.667l-43.093-0.043c-23.68 0-48.469-0.811-55.040-1.749-36.992-5.291-65.877-34.816-70.912-72.533-1.195-8.704-1.621-39.168-1.237-82.773 0.683-75.776 0.853-77.141 11.136-87.637 9.515-9.728 12.203-10.069 82.773-10.837 35.456-0.384 64.427-1.024 64.427-1.451 0-0.384-4.693-19.456-10.411-42.368l-10.411-41.643-54.016-0.725c-59.264-0.811-63.104-1.408-72.363-10.837-11.136-11.392-10.581-2.901-11.136-174.336l-0.512-155.733h-85.077l-0.512 155.733c-0.555 171.435 0 162.944-11.136 174.336-9.088 9.259-13.525 9.984-67.413 10.837l-49.067 0.725v84.736l49.067 0.725c53.888 0.853 58.325 1.579 67.413 10.837 10.368 10.624 10.325 10.496 11.52 103.936l1.067 85.333 4.651 15.36c14.507 47.872 43.349 83.712 85.163 105.771 14.72 7.765 36.608 15.317 51.456 17.792 4.779 0.811 32.299 1.579 61.184 1.664l52.48 0.213v-42.667z" />
<glyph unicode="&#xe921;" glyph-name="send" d="M921.6 914.603c-5.163-2.389-198.784-70.656-430.251-151.68s-423.381-148.608-426.496-150.229c-13.269-6.869-22.144-22.784-22.187-39.893 0-13.141 4.267-21.888 14.123-28.672 3.669-2.56 90.752-42.027 193.579-87.723l186.923-83.115 82.475-185.557c45.397-102.059 84.48-188.459 86.912-191.957 2.475-3.541 8.448-8.619 13.355-11.349 7.851-4.352 10.539-4.907 23.637-4.907 13.867 0 15.147 0.299 21.12 5.12 3.499 2.816 8.149 8.576 10.368 12.8 2.176 4.224 70.059 196.608 150.827 427.52s149.163 424.875 151.979 431.061c6.528 14.379 6.613 23.211 0.384 35.669-12.373 24.789-34.048 33.536-56.747 22.912zM617.557 614.144l-158.123-158.123-127.744 56.704c-70.272 31.232-128.299 57.301-128.981 57.941-1.067 0.981 566.144 201.003 571.264 201.429 0.939 0.085-69.461-70.997-156.416-157.952zM736 423.637c-55.083-157.397-100.693-285.611-101.333-284.928s-26.709 58.709-57.941 128.981l-56.704 127.701 157.611 157.653c86.699 86.699 157.824 157.44 158.080 157.184s-44.629-129.237-99.712-286.592z" />
<glyph unicode="&#xe922;" glyph-name="check-circle" d="M475.349 915.541c-93.824-7.808-181.376-42.453-256.043-101.291-22.229-17.536-61.312-57.088-78.165-79.147-44.885-58.752-76.672-130.005-89.643-200.917-5.547-30.123-7.381-52.011-7.424-87.723-0.128-107.563 35.883-209.067 104.149-293.675 42.667-52.864 94.037-93.781 156.416-124.629 62.507-30.891 122.411-45.44 194.816-47.275 54.187-1.365 88.363 2.56 137.131 15.701 154.155 41.515 279.339 164.053 324.181 317.355 14.123 48.256 19.072 84.864 19.456 143.104 0.299 45.056-0.896 52.139-10.283 61.483-13.781 13.824-48.896 13.909-62.336 0.213-9.387-9.6-10.197-14.251-11.691-65.621-1.323-46.165-2.261-56.405-7.552-81.92-24.448-117.589-102.144-217.173-209.835-268.971-127.531-61.312-277.888-47.915-391.808 34.944-86.997 63.232-142.251 157.184-156.288 265.6-3.797 29.483-2.645 79.744 2.56 109.227 11.179 63.659 37.12 122.197 76.715 173.227 14.123 18.176 44.587 48.981 62.507 63.147 101.973 80.725 235.989 105.045 358.4 65.109 8.448-2.731 23.552-8.149 33.579-12.032 11.435-4.352 21.035-6.997 25.6-6.955 16 0.085 28.075 10.325 35.499 30.080 6.912 18.517 3.115 35.115-10.24 44.8-13.184 9.557-65.323 28.245-100.651 36.096-41.941 9.301-98.773 13.44-139.051 10.069zM923.307 830.123c-5.845-2.773-55.552-51.669-209.365-206.080l-201.685-202.496-53.461 53.248c-55.552 55.339-61.568 60.16-74.795 60.16-19.371 0-44.416-25.259-44.331-44.672 0.085-15.232 2.816-18.517 78.123-93.739 46.421-46.379 73.685-72.32 78.336-74.667 9.472-4.693 22.272-4.736 31.744 0 10.965 5.461 446.635 441.771 451.499 452.224 7.253 15.403 3.584 30.037-11.136 44.8-14.72 14.677-29.568 18.389-44.928 11.221z" />
<glyph unicode="&#xe923;" glyph-name="mail" d="M154.453 830.251c-27.776-3.157-52.523-15.445-73.557-36.48-20.608-20.651-30.421-39.851-36.011-70.357-2.901-15.915-3.029-31.701-2.176-284.8l0.939-267.947 3.883-12.8c6.869-22.528 16.427-38.357 33.536-55.467 17.451-17.451 33.408-26.965 56.32-33.579l13.653-3.968h359.253c407.040 0 371.285-1.28 401.707 14.208 12.629 6.443 18.475 10.88 30.933 23.339 17.493 17.536 27.392 34.176 33.707 56.576l3.755 13.397 1.792 535.893-3.797 18.773c-5.675 28.373-15.445 46.677-35.371 66.56-17.152 17.067-32.981 26.624-55.552 33.579l-12.8 3.925-354.133 0.213c-194.773 0.171-359.509-0.341-366.080-1.067zM871.253 742.656c8.448-3.925 19.669-14.635 19.584-18.645-0.043-2.816-374.869-264.917-378.837-264.917s-378.795 262.101-378.837 264.917c-0.085 4.011 11.136 14.72 19.584 18.645l8.533 3.968h701.44l8.533-3.968zM308.736 495.957c97.237-68.096 180.949-125.995 186.027-128.555 10.624-5.461 20.565-6.101 30.891-1.963 3.797 1.493 88.491 59.861 188.203 129.664l181.291 126.891 0.469-218.837c0.427-199.595 0.213-219.477-2.347-226.261-3.883-10.283-11.861-18.816-22.016-23.552l-8.533-3.968h-350.72c-349.184 0.043-350.763 0.043-358.4 3.499-10.325 4.693-16.683 10.965-21.547 21.205l-4.011 8.533-0.043 219.819c0 165.632 0.469 219.563 1.963 218.624 1.067-0.64 81.536-56.96 178.773-125.099z" />
<glyph unicode="&#xe924;" glyph-name="check" d="M795.307 702.123c-5.845-2.773-55.552-51.669-209.365-206.080l-201.685-202.496-53.461 53.248c-55.552 55.339-61.568 60.16-74.795 60.16-19.371 0-44.416-25.259-44.331-44.672 0.085-15.232 2.816-18.517 78.123-93.739 46.421-46.379 73.685-72.32 78.336-74.667 9.472-4.693 22.272-4.736 31.744 0 10.965 5.461 446.635 441.771 451.499 452.224 7.253 15.403 3.584 30.037-11.136 44.8-14.72 14.677-29.568 18.389-44.928 11.221z" />
<glyph unicode="&#xe925;" glyph-name="arrow-up" d="M495.403 787.285c-4.949-1.92-11.435-6.272-14.507-9.643s-72.875-73.728-155.093-156.373c-113.109-113.621-150.4-152.107-153.173-158.037-7.253-15.36-3.584-30.037 11.136-44.8 14.763-14.72 29.44-18.389 44.8-11.136 5.888 2.773 36.736 32.555 124.245 119.808l116.437 116.139 0.469-253.355c0.512-279.509-0.299-260.267 11.221-272.043 13.312-13.611 48.811-13.611 62.123 0 11.52 11.776 10.709-7.467 11.221 272.043l0.469 253.355 116.437-116.139c87.509-87.253 118.357-117.035 124.245-119.808 15.36-7.253 30.037-3.584 44.8 11.136 14.72 14.763 18.389 29.44 11.136 44.8-2.773 5.931-40.064 44.416-153.173 158.037-82.219 82.645-152.021 153.003-155.051 156.373-6.571 7.211-21.461 13.44-31.744 13.269-3.883-0.043-11.093-1.664-16-3.627z" />
<glyph unicode="&#xe926;" glyph-name="close" d="M241.323 744.917c-9.045-4.48-21.931-17.451-26.283-26.411-4.437-9.131-4.352-20.011 0.256-29.739 2.773-5.888 32.555-36.779 119.851-124.288l116.181-116.48-116.181-116.48c-87.296-87.509-117.077-118.4-119.851-124.288-7.253-15.36-3.584-30.037 11.136-44.8 14.763-14.72 29.44-18.389 44.8-11.136 5.888 2.773 36.779 32.555 124.288 119.851l116.48 116.181 116.48-116.181c87.509-87.296 118.4-117.077 124.288-119.851 15.36-7.253 30.037-3.584 44.8 11.136 14.72 14.763 18.389 29.44 11.136 44.8-2.773 5.888-32.555 36.779-119.851 124.288l-116.181 116.48 116.181 116.48c87.296 87.509 117.077 118.4 119.851 124.288 7.253 15.36 3.584 30.037-11.136 44.8-14.763 14.72-29.44 18.389-44.8 11.136-5.888-2.773-36.779-32.555-124.288-119.851l-116.48-116.181-116.48 116.181c-87.509 87.296-118.4 117.077-124.288 119.851-9.771 4.608-20.864 4.693-29.909 0.213z" />
<glyph unicode="&#xe927;" glyph-name="arrow-down" d="M501.76 787.627c-11.264-2.005-15.915-4.181-21.419-10.069-10.795-11.435-10.112 6.443-10.624-271.445l-0.469-253.355-116.437 116.139c-87.509 87.253-118.357 117.035-124.245 119.808-15.36 7.253-30.037 3.584-44.8-11.136-14.72-14.763-18.389-29.44-11.136-44.8 2.773-5.931 40.064-44.416 153.173-158.037 82.219-82.645 152.021-153.003 155.051-156.373 6.357-6.955 21.291-13.397 31.147-13.397s24.789 6.443 31.147 13.397c3.029 3.371 72.832 73.728 155.051 156.373 113.109 113.621 150.4 152.107 153.173 158.037 7.253 15.36 3.584 30.037-11.136 44.8-14.763 14.72-29.44 18.389-44.8 11.136-5.888-2.773-36.736-32.555-124.245-119.808l-116.437-116.139-0.469 253.355c-0.512 279.509 0.299 260.267-11.221 272.043-7.893 8.064-26.027 12.203-41.301 9.472z" />
<glyph unicode="&#xe928;" glyph-name="chevron-down" d="M241.323 616.917c-9.045-4.48-21.931-17.451-26.283-26.411-4.437-9.131-4.352-20.011 0.256-29.739 2.773-5.931 35.968-40.149 138.667-142.805 142.933-142.976 142.251-142.336 158.037-142.336s15.104-0.64 158.037 142.336c102.699 102.656 135.893 136.875 138.667 142.805 7.253 15.403 3.584 30.037-11.136 44.8-14.763 14.72-29.44 18.389-44.8 11.136-5.888-2.773-36.779-32.555-124.288-119.851l-116.48-116.181-116.48 116.181c-87.509 87.296-118.4 117.077-124.288 119.851-9.771 4.608-20.864 4.693-29.909 0.213z" />
<glyph unicode="&#xe929;" glyph-name="alert" d="M481.28 874.581c-27.477-7.083-53.76-24.149-69.333-44.971-10.197-13.653-368.896-612.267-376.021-627.541-8.235-17.621-10.965-30.805-10.965-52.736 0-22.485 2.773-35.285 11.691-54.187 7.552-15.957 13.739-24.789 25.003-35.755 18.005-17.493 38.229-28.8 61.056-34.176 12.245-2.859 34.048-3.029 389.291-3.029 354.219 0 377.088 0.171 389.205 3.029 22.912 5.376 45.824 18.389 62.635 35.584 11.093 11.392 16.171 18.773 23.552 34.475 8.789 18.603 11.563 31.531 11.563 54.059 0 21.931-2.731 35.285-10.795 52.523-6.955 14.891-365.909 614.101-375.851 627.413-15.872 21.248-42.411 38.357-70.272 45.397-17.835 4.48-43.179 4.48-60.757-0.085zM530.816 789.291c3.499-1.792 8.661-5.504 11.392-8.235 4.949-4.949 367.488-608.427 371.029-617.6 2.645-6.827 2.304-22.656-0.64-29.696-3.84-9.216-13.099-18.688-22.571-23.083l-8.533-3.968-368.427-0.043c-277.504 0-370.091 0.512-375.168 2.005-8.875 2.645-20.693 13.269-25.259 22.699-4.181 8.704-4.907 23.765-1.536 32.256 2.261 5.632 361.344 606.037 367.445 614.357 4.096 5.547 15.787 12.885 23.765 14.933 7.637 1.92 20.992 0.213 28.501-3.627zM501.76 616.96c-11.264-2.005-15.659-4.096-21.632-10.197-9.771-9.984-9.941-12.16-9.941-116.096 0-104.917 0.128-106.197 10.539-116.608 6.827-6.827 17.237-10.24 31.275-10.24 21.248 0 34.901 8.32 39.467 24.107 3.413 11.733 3.413 193.749 0 205.483-5.205 17.92-26.027 27.819-49.707 23.552zM501.76 275.627c-11.221-2.005-15.659-4.096-21.632-10.197-6.272-6.4-9.643-17.195-9.643-30.763 0-18.773 7.381-33.28 19.285-37.888 15.445-5.931 38.4-4.693 49.621 2.731 16.213 10.752 20.181 43.477 7.595 62.677-7.125 10.923-26.709 16.768-45.227 13.44z" />
<glyph unicode="&#xe92a;" glyph-name="user" d="M491.947 872.789c-89.387-7.979-165.845-73.899-186.496-160.811-25.771-108.544 34.603-217.259 140.288-252.757 39.296-13.184 93.227-13.184 132.523 0 59.861 20.096 106.752 63.957 130.731 122.283 20.267 49.237 20.267 110.421 0 159.659-36.011 87.552-122.581 140.075-217.045 131.627zM552.107 783.488c23.637-7.979 44.075-22.315 59.605-41.771 11.776-14.72 16.768-23.637 22.571-40.277 4.437-12.672 4.779-15.573 4.779-40.107s-0.341-27.435-4.779-40.107c-5.803-16.64-10.795-25.557-22.571-40.277-15.445-19.328-35.712-33.579-59.605-41.899-12.672-4.437-15.573-4.779-40.107-4.779s-27.435 0.341-40.107 4.779c-16.64 5.803-25.557 10.795-40.277 22.571-29.355 23.467-45.525 54.997-47.189 92.16-1.877 40.448 9.515 70.4 37.12 98.005 27.477 27.52 54.315 37.973 94.72 36.907 18.645-0.469 24.363-1.28 35.84-5.205zM321.28 360.789c-94.464-8.405-171.989-79.744-189.312-174.080-2.389-13.056-2.944-26.752-3.029-74.069-0.085-64.981 0.555-70.059 10.453-79.915 13.781-13.824 48.896-13.909 62.336-0.213 9.984 10.24 10.325 12.757 11.52 80.981l1.109 62.293 4.693 13.653c5.76 16.597 10.752 25.515 22.571 40.277 15.403 19.285 35.627 33.536 59.605 41.941l13.653 4.821h394.24l13.653-4.821c23.979-8.405 44.203-22.656 59.605-41.941 11.819-14.763 16.811-23.68 22.571-40.277l4.693-13.653 1.109-62.293c1.195-68.224 1.536-70.741 11.52-80.981 13.44-13.696 48.555-13.611 62.336 0.213 9.899 9.856 10.539 14.933 10.453 79.915-0.085 47.317-0.64 60.971-3.029 74.112-13.227 72.149-61.483 131.584-129.536 159.573-19.413 8.021-38.528 12.459-62.763 14.592-23.467 2.048-354.987 1.963-378.453-0.128z" />
<glyph unicode="&#xe92b;" glyph-name="arrow-right" d="M497.323 787.584c-9.045-4.48-21.931-17.451-26.283-26.411-4.437-9.131-4.352-20.011 0.256-29.739 2.773-5.888 32.555-36.736 119.808-124.245l116.139-116.437-253.355-0.469c-279.509-0.512-260.267 0.299-272.043-11.221-13.611-13.312-13.611-48.811 0-62.123 11.776-11.52-7.467-10.709 272.043-11.221l253.355-0.469-116.139-116.437c-87.253-87.509-117.035-118.357-119.808-124.245-7.253-15.36-3.584-30.037 11.136-44.8 14.763-14.72 29.44-18.389 44.8-11.136 5.931 2.773 44.416 40.064 158.037 153.173 82.645 82.219 153.003 152.021 156.373 155.051 6.955 6.357 13.397 21.291 13.397 31.147s-6.443 24.789-13.397 31.147c-3.371 3.029-73.728 72.832-156.373 155.051-113.621 113.109-152.107 150.4-158.037 153.173-9.771 4.608-20.864 4.693-29.909 0.213z" />
<glyph unicode="&#xe92c;" glyph-name="chevron-up" d="M496.64 616.704c-11.221-5.376-276.181-270.421-281.344-281.472-7.253-15.403-3.584-30.037 11.136-44.8 14.763-14.72 29.44-18.389 44.8-11.136 5.888 2.773 36.779 32.555 124.288 119.851l116.48 116.181 116.48-116.181c87.509-87.296 118.4-117.077 124.288-119.851 15.36-7.253 30.037-3.584 44.8 11.136 14.72 14.763 18.389 29.397 11.136 44.8-5.248 11.264-270.208 276.224-281.472 281.472-9.941 4.693-20.821 4.651-30.592 0z" />
<glyph unicode="&#xe92d;" glyph-name="instagram" d="M512 960c-139.050 0-156.487-0.59-211.098-3.081-54.496-2.486-91.715-11.143-124.283-23.797-33.669-13.085-62.222-30.592-90.685-59.055-28.465-28.463-45.973-57.019-59.056-90.688-12.658-32.566-21.311-69.785-23.8-124.281-2.491-54.611-3.079-72.047-3.079-211.098s0.588-156.489 3.079-211.098c2.489-54.498 11.143-91.716 23.8-124.279 13.085-33.668 30.593-62.225 59.056-90.688 28.465-28.463 57.016-45.973 90.685-59.059 32.568-12.651 69.786-21.308 124.283-23.795 54.611-2.492 72.047-3.081 211.098-3.081s156.489 0.589 211.098 3.081c54.498 2.487 91.716 11.145 124.279 23.795 33.668 13.086 62.225 30.596 90.688 59.059s45.973 57.020 59.059 90.688c12.651 32.563 21.308 69.781 23.795 124.279 2.492 54.609 3.081 72.047 3.081 211.098s-0.589 156.487-3.081 211.098c-2.487 54.496-11.145 91.715-23.795 124.281-13.086 33.669-30.596 62.225-59.059 90.688s-57.020 45.971-90.688 59.055c-32.563 12.655-69.781 21.311-124.279 23.797-54.609 2.491-72.047 3.081-211.098 3.081zM512 867.748c136.708 0 152.905-0.523 206.891-2.986 49.92-2.276 77.030-10.617 95.070-17.629 23.902-9.289 40.956-20.383 58.871-38.299 17.92-17.917 29.013-34.973 38.302-58.871 7.010-18.042 15.351-45.152 17.63-95.072 2.462-53.989 2.987-70.183 2.987-206.892s-0.525-152.905-2.987-206.891c-2.278-49.92-10.62-77.030-17.63-95.070-9.289-23.902-20.382-40.956-38.302-58.871-17.916-17.92-34.97-29.013-58.867-38.302-18.044-7.010-45.154-15.351-95.074-17.63-53.978-2.462-70.17-2.987-206.891-2.987s-152.909 0.525-206.892 2.991c-49.92 2.274-77.030 10.615-95.070 17.626-23.901 9.289-40.956 20.382-58.871 38.302-17.916 17.916-29.012 34.97-38.301 58.867-7.012 18.044-15.351 45.154-17.629 95.074-2.463 53.986-2.986 70.182-2.986 206.891s0.523 152.903 2.986 206.892c2.278 49.92 10.617 77.030 17.629 95.070 9.289 23.901 20.384 40.956 38.299 58.871 17.917 17.918 34.973 29.012 58.871 38.301 18.042 7.012 45.152 15.353 95.072 17.629 53.989 2.463 70.183 2.986 206.892 2.986zM512.004 277.333c-94.26 0-170.669 76.412-170.669 170.667 0 94.26 76.41 170.669 170.669 170.669 94.255 0 170.667-76.41 170.667-170.669 0-94.255-76.412-170.667-170.667-170.667zM512.004 710.921c-145.209 0-262.921-117.712-262.921-262.921 0-145.203 117.712-262.916 262.921-262.916 145.203 0 262.916 117.713 262.916 262.916 0 145.209-117.713 262.921-262.916 262.921zM846.75 721.309c0-33.934-27.507-61.44-61.44-61.44s-61.44 27.506-61.44 61.44c0 33.932 27.507 61.441 61.44 61.441s61.44-27.509 61.44-61.441z" />
<glyph unicode="&#xe92e;" glyph-name="fill-linkedin" d="M1024 332.278v-396.068h-220.902v369.879c0 92.544-30.367 156.088-110.377 156.088-24.709-0.397-48.722-8.615-68.89-23.572-20.168-14.961-35.543-35.963-44.104-60.242-5.868-17.659-8.668-36.275-8.264-54.963v-387.41h-220.971c0 0 2.754 627.312 0 690.931h220.828v-98.314c0.010-0.382-0.051-0.761-0.189-1.116-0.133-0.354-0.338-0.677-0.594-0.947s-0.563-0.482-0.901-0.624c-0.338-0.141-0.701-0.209-1.065-0.199h2.749v2.885c19.927 36.358 48.927 66.349 83.886 86.757s74.557 30.464 114.56 29.089c143.498 0 254.234-101.199 254.234-312.252v0.077zM124.225 959.59c-15.695 1.34-31.484-0.714-46.39-6.034s-28.607-13.792-40.256-24.891c-11.649-11.099-20.995-24.588-27.459-39.629s-9.907-31.313-10.117-47.806c-0.118-16.343 3.010-32.531 9.185-47.54s15.264-28.506 26.687-39.637c11.423-11.131 24.931-19.652 39.667-25.020s30.376-7.468 45.928-6.165h2.754c15.743-1.589 31.63 0.29 46.638 5.517s28.806 13.687 40.506 24.835c11.7 11.148 21.043 24.737 27.429 39.895s9.672 31.546 9.649 48.114c-0.44 16.417-4.039 32.572-10.581 47.498s-15.891 28.315-27.49 39.367c-11.598 11.051-25.207 19.537-40.010 24.949s-30.497 7.639-46.141 6.547zM11.232-63.79h218.005v690.933h-218.217l0.212-690.933z" />
<glyph unicode="&#xe92f;" glyph-name="settings" d="M485.547 946.091c-4.693-0.896-15.829-5.12-24.747-9.429-13.696-6.613-18.475-10.112-30.805-22.528-23.253-23.424-31.573-42.325-34.048-77.269-2.219-30.891-8.619-41.6-28.587-47.829-19.115-5.973-27.947-3.669-46.805 12.288-26.069 22.059-49.323 31.189-79.915 31.36-21.888 0.171-31.957-2.176-52.779-12.117-13.397-6.443-18.475-10.069-30.123-21.717s-15.275-16.725-21.717-30.123c-9.941-20.821-12.288-30.891-12.117-52.779 0.171-30.592 9.301-53.845 31.36-79.915 16.085-19.029 18.645-29.056 11.947-46.933-3.925-10.539-13.141-20.907-21.76-24.491-3.243-1.365-14.592-3.157-25.173-4.053-32.427-2.645-51.669-11.392-74.411-33.963-12.459-12.373-15.872-17.067-22.485-30.805-8.832-18.347-11.435-29.995-11.435-51.2s2.603-32.853 11.435-51.2c6.613-13.739 10.027-18.432 22.485-30.805 23.467-23.253 42.624-31.701 77.141-34.005 23.851-1.579 30.72-3.968 40.32-13.995 3.029-3.115 6.656-9.045 8.107-13.141 5.717-16.128 2.731-26.581-12.757-44.885-22.059-26.069-31.189-49.323-31.36-79.915-0.171-21.888 2.176-31.957 12.117-52.779 6.443-13.397 10.069-18.475 21.717-30.123s16.725-15.275 30.123-21.717c20.821-9.941 30.891-12.288 52.779-12.117 30.592 0.171 53.845 9.301 79.915 31.36 19.029 16.085 29.056 18.645 46.933 11.947 10.539-3.925 20.907-13.141 24.491-21.76 1.365-3.243 3.157-14.592 4.053-25.173 2.645-32.427 11.392-51.669 33.963-74.411 12.373-12.459 17.067-15.872 30.805-22.485 18.347-8.832 29.995-11.435 51.2-11.435s32.853 2.603 51.2 11.435c13.739 6.613 18.432 10.027 30.805 22.485 23.253 23.467 31.701 42.624 34.005 77.141 1.579 23.851 3.968 30.72 13.995 40.32 3.115 3.029 9.045 6.656 13.141 8.107 16.128 5.717 26.581 2.731 44.885-12.757 26.069-22.059 49.323-31.189 79.915-31.36 21.888-0.171 31.957 2.176 52.779 12.117 13.397 6.443 18.475 10.069 30.123 21.717s15.275 16.725 21.717 30.123c9.941 20.821 12.288 30.891 12.117 52.779-0.171 30.592-9.301 53.845-31.36 79.915-15.488 18.304-18.475 28.757-12.757 44.885 1.451 4.096 5.077 10.027 8.107 13.141 9.301 9.728 16.469 12.331 38.699 13.995 33.152 2.517 52.352 11.221 75.349 34.005 12.459 12.373 15.872 17.067 22.485 30.805 8.832 18.347 11.435 29.995 11.435 51.2s-2.603 32.853-11.435 51.2c-6.613 13.739-10.027 18.432-22.485 30.805-23.424 23.253-42.325 31.573-77.269 34.048-30.891 2.219-41.6 8.619-47.829 28.587-5.973 19.115-3.669 27.947 12.288 46.805 22.059 26.069 31.189 49.323 31.36 79.915 0.171 21.888-2.176 31.957-12.117 52.779-6.443 13.397-10.069 18.475-21.717 30.123s-16.725 15.275-30.123 21.717c-20.821 9.941-30.891 12.288-52.779 12.117-30.592-0.171-53.845-9.301-79.915-31.36-18.304-15.488-28.757-18.475-44.885-12.757-4.096 1.451-10.027 5.077-13.141 8.107-9.728 9.301-12.331 16.469-13.995 38.699-2.517 33.152-11.221 52.352-34.005 75.349-12.373 12.459-17.067 15.872-30.805 22.485-8.917 4.309-20.779 8.619-26.325 9.6-12.075 2.176-39.381 2.091-51.328-0.128zM535.339 879.616c20.181-9.643 28.459-24.149 31.061-54.485 0.939-10.837 2.987-23.509 4.523-28.16 16.213-48.725 66.773-78.464 116.352-68.437 22.528 4.565 32.853 10.24 60.672 33.365 26.027 21.632 66.56 11.733 80.981-19.755 8.661-18.901 6.4-38.443-6.315-54.357-28.117-35.243-32.683-44.971-35.2-74.667-1.451-16.811 3.883-41.088 12.843-58.453 10.795-21.035 33.237-39.723 57.344-47.744 4.693-1.579 18.091-3.584 29.824-4.48 32-2.432 46.080-10.283 56.491-31.36 13.056-26.581 2.219-57.771-24.576-70.784-8.704-4.224-13.952-5.376-30.208-6.741-22.101-1.877-31.659-4.565-47.573-13.355-32.085-17.749-53.803-58.027-50.731-94.165 2.475-29.269 8.576-42.112 35.072-73.984 26.581-32 4.736-81.707-37.845-86.059-12.501-1.28-26.581 3.157-36.693 11.52-27.392 22.784-37.333 28.331-59.477 33.237-49.195 10.965-100.864-19.072-117.632-68.352-1.579-4.693-3.584-18.091-4.395-29.739-2.304-31.872-10.24-46.165-31.36-56.576-27.264-13.397-59.008-1.664-71.936 26.581-2.773 6.016-4.309 13.397-5.035 23.979-1.408 19.925-4.779 33.195-11.989 46.891-11.563 22.101-29.483 37.845-54.357 47.829-22.4 8.96-39.595 10.581-60.971 5.717-21.035-4.821-27.989-8.704-58.581-33.109-39.595-31.573-97.92 7.851-83.712 56.619 2.944 10.155 4.096 11.904 20.139 31.104 15.488 18.56 22.4 35.712 24.533 60.928 3.072 36.139-18.645 76.416-50.731 94.165-16.512 9.131-25.984 11.691-49.323 13.355-18.475 1.323-22.741 2.219-31.872 6.699-40.064 19.627-40.064 75.904 0 95.488 8.405 4.096 13.653 5.333 25.899 6.187 28.459 1.92 48.939 9.728 67.072 25.643 22.997 20.096 38.016 56.491 35.499 85.973-2.432 29.056-8.576 41.984-35.029 73.813-21.76 26.24-11.733 66.56 20.224 81.195 18.645 8.533 39.040 6.016 54.315-6.656 27.819-23.125 38.144-28.8 60.672-33.365 43.051-8.704 90.581 12.288 110.891 49.024 9.003 16.256 11.563 25.771 13.355 49.28 2.347 30.763 9.728 44.928 28.8 55.339 16.043 8.704 31.872 9.003 48.981 0.853zM479.573 604.16c-59.051-13.184-104.96-56.405-121.557-114.347-3.328-11.733-3.883-17.579-3.883-41.813s0.555-30.080 3.883-41.813c15.488-54.144 58.027-96.683 112.171-112.171 11.733-3.328 17.579-3.883 41.813-3.883s30.080 0.555 41.813 3.883c54.144 15.488 96.683 58.027 112.171 112.171 3.328 11.733 3.883 17.579 3.883 41.813s-0.555 30.080-3.883 41.813c-15.403 53.76-57.984 96.597-111.317 111.915-16.811 4.821-58.368 6.187-75.093 2.432zM540.16 539.861c14.933-4.352 24.149-9.685 36.779-21.419 20.992-19.413 30.933-42.069 30.933-70.443-0.043-26.581-7.467-45.568-25.429-64.939-19.413-20.992-42.069-30.933-70.443-30.933-26.581 0.043-45.568 7.467-64.939 25.429-20.992 19.413-30.933 42.069-30.976 70.443 0 26.453 7.467 45.525 25.472 64.939 26.069 28.203 61.141 37.76 98.603 26.923z" />
<glyph unicode="&#xe930;" glyph-name="loading" d="M426.667 192c0-70.692-57.308-128-128-128s-128 57.308-128 128c0 70.692 57.308 128 128 128s128-57.308 128-128zM256 448c0-47.128-38.205-85.333-85.333-85.333s-85.333 38.205-85.333 85.333c0 47.128 38.205 85.333 85.333 85.333s85.333-38.205 85.333-85.333zM682.667 128c0-58.91-47.756-106.667-106.667-106.667s-106.667 47.756-106.667 106.667c0 58.91 47.756 106.667 106.667 106.667s106.667-47.756 106.667-106.667zM341.333 725.333c0-35.346-28.654-64-64-64s-64 28.654-64 64c0 35.346 28.654 64 64 64s64-28.654 64-64zM597.333 810.667c0-35.346-28.654-64-64-64s-64 28.654-64 64c0 35.346 28.654 64 64 64s64-28.654 64-64zM810.667 725.333c0-35.346-28.654-64-64-64s-64 28.654-64 64c0 35.346 28.654 64 64 64s64-28.654 64-64zM938.667 512c0-35.346-28.654-64-64-64s-64 28.654-64 64c0 35.346 28.654 64 64 64s64-28.654 64-64zM896 234.667c0-47.128-38.205-85.333-85.333-85.333s-85.333 38.205-85.333 85.333c0 47.128 38.205 85.333 85.333 85.333s85.333-38.205 85.333-85.333z" />
</font>
</defs>
</svg>
